The 24/7 LEARNING ACADEMY
The 24/7 Learning Academy is a place where parents and teachers can learn, plan, and prepare to inspire young minds through through this blog. You will benefit from the expertise and experience of our community of parent-teachers who are contributing content.

Our goal is to make education surprisingly easy for you at home or in the classroom. You can confidently achieve your education goals for your children and students. Start exploring the Learning Center now!
The 24/7 LEARNING ACADEMY
Would you like to react to this message? Create an account in a few clicks or log in to continue.
Top posters
HAMADA (922)
922 Posts - 68%
BRIM (165)
165 Posts - 12%
boualem02 (97)
97 Posts - 7%
sasuna (43)
43 Posts - 3%
tanita (43)
43 Posts - 3%
razane (26)
26 Posts - 2%
23 Posts - 2%
tanita- (17)
17 Posts - 1%
12 Posts - 1%
11 Posts - 1%
Search
Display results as :
Advanced Search
Similar topics

    Go down
    BRIM
    BRIM
    Administrator
    Administrator
    Number of posts : 165
    Age : 11
    Location : Tizi
    Registration date : 2007-12-19

    default English Result Pre-Intermediate Teacher's DVD

    on Thu Jan 13, 2011 5:48 pm

    teacher -  English Result Pre-Intermediate Teacher's DVD 001926e8_medium

    English Result Pre-Intermediate Teacher's DVD
    Publisher: Oxford Univ. Pr. | 2008 | ISBN: 978 0194302401 | English | AVI+PDF | Length: 00:25:08 | 269.85 Mb

    What's on the DVD?
    This DVD shows teachers and students using English Result material in class, commentary from the authors, and teacher reaction.
    The classroom footage:
    - demonstrates how English Result works in class
    - shows you how to use the material before you teach
    - covers a variety of pedagogical areas
    The author commentary provides:
    - an introduction to the course
    - tips for best-practice teaching
    How to use the DVD
    The DVD can be used in the following ways:
    - By an individual teacher- you can watch the DVD with or without the worksheets.
    - As a teacher-training workshop - trainers can use the DVD and the
    worksheets in a training session, including group discussion and
    reflection on the issues presented in the DVD.
    Trainer's notes and worksheets are designed to be used in conjunction
    with the English Result teacher training DVD. Trainers can use the
    worksheets in a training session to facilitate group discussion and
    reflection on the issues presented in the DVD.
    Each set of notes gives an overview of the teacher training session
    together with ideas for activities to use before watching the lesson on
    the DVD, while watching, and after watching. Each session will take
    around two hours, though this may be shorter with more experienced
    trainees.
    teacher -  English Result Pre-Intermediate Teacher's DVD 001926e9_medium


    General
    Complete name : D:\My
    Documents\Загрузки\ER_PRE_INT_t_dvd_video\ER_PRE_INT_t_dvd_video\ER_PRE_INT_t_dvd_video\ER_PRE_INT.Title2.avi
    Format : AVI
    Format/Info : Audio Video Interleave
    File size : 270 MiB
    Duration : 25mn 8s
    Overall bit rate : 1 501 Kbps
    Movie name : ER_PRE_INT.Title2.DVDRip
    Writing application : Lavf52.78.4
    Original source form/Name : ER_PRE_INT

    Video
    ID : 0
    Format : AVC
    Format/Info : Advanced Video Codec
    Codec ID : H264
    Duration : 25mn 8s
    Bit rate : 1 297 Kbps
    Width : 720 pixels
    Height : 404 pixels
    Display aspect ratio : 16:9
    Frame rate : 29.970 fps
    Color space : YUV
    Chroma subsampling : 4:2:0
    Bits/(Pixel*Frame) : 0.149
    Stream size : 233 MiB (86%)

    Audio
    ID : 1
    Format : AC-3
    Format/Info : Audio Coding 3
    Mode extension : CM (complete main)
    Codec ID : 2000
    Duration : 25mn 8s
    Bit rate mode : Constant
    Bit rate : 192 Kbps
    Channel(s) : 2 channels
    Channel positions : Front: L R
    Sampling rate : 48.0 KHz
    Bit depth : 16 bits
    Compression mode : Lossy
    Stream size : 34.5 MiB (13%)
    Alignment : Aligned on interleaves
    Interleave, duration : 32 ms (0.96 video frame)
    Interleave, preload duration : 32 ms



    Download from FileServe.com
    OR
    Download from FileSonic.com
    Back to top
    Permissions in this forum:
    You cannot reply to topics in this forum